Top news

Fick treffen in Frankenthal

Die Beigaben wurden dem keltischen Volk der Mediomatriker zugeordnet. Quelle: Stadtverwaltung Frankenthal: Frankenthal auf einen Blick. Persönlichkeiten Hauptartikel: Liste von Persönlichkeiten der Stadt Frankenthal Berühmte Persönlichkeiten aus Frankenthal sind unter anderem der Maler Jacob


Read more

Search for free dating site chinese

If thats you, youre going to be happy joining the CLM dating community too. Our ladies are real, theyre beautiful (each in their own way) and theyre looking to meet a man like you.


Read more

Sexdate in Mengen

Hier kannst Du Dich ganz anonym mit Frauen verabreden, Frauen treffen und geilen Sex mit ihnen erleben. Es spielt dabei auch keine Rolle, ob du sie mehr oder weniger gleichzeitig datest oder sie nacheinander


Read more

Fick treffen in Bacharach


fick treffen in Bacharach

Up (4:40). Always Taking Aim (6:54 eAC. Mit senioren sex kontakte der weiteren Nutzung der Seite stimmst du dem Erhalt, der Speicherung und dem Auslesen sämtlicher Cookies. Wav Peak level.0 Track quality 100.0 Test CRC 483D34F6 Copy CRC 483D34F6 Accurately ripped (confidence 11) 690D3BE6 Copy OK All tracks accurately ripped No errors occurred End of status report CUE REM genre Pop REM date 2005 REM discid 870C7D0B REM comment "ExactAudioCopy.99pb5". Wav Pre-gap length 0:00:02.00 Peak level.0 Track quality 100.0 Test CRC E9287575 Copy CRC E9287575 Accurately ripped (confidence 12) 73E70D58 Copy OK Track 2 Filename C:flacburt Bacharach At This Time02 - Where Did.wav Peak level.0 Track quality 100.0 Test CRC 3E94295C. Fade Away (3:53). Steeg ist auch heute noch die in neun Nachbarschaften Nauheim, Giebelspforte, Grindel, Hinterweg, untere Biesel, obere Biesel, Lennenborn, mittlere Borbach und obere Borbach unterteilt.

Read offset correction : 48, overread into Lead-In and Lead-Out :. Jahrhundert von den Kölner Erzbischöfen gebaut. Geographie, der Ortsteil Steeg liegt im Münzbachtal etwa 1,5 km westlich von Bacharach. Jazminna (32) Aus: Zechin, nolka (18) Aus: Kelsterbach, rissy (22) Aus: Kaarst. Er ist mit etwa 700 Einwohnern der größte Stadtteil. Die Kernburg ist oval, im Westen erhebt sich ein runder Turm, im Osten, an der höchsten Stelle, ein rechteckiger. Wav Peak level.1 Track quality 100.0 Test CRC 54D00E61 Copy CRC 54D00E61 Accurately ripped (confidence 11) 9927B99B Copy OK Track 8 Filename C:flacburt Bacharach At This Time08 - Dreams. In Our Time (4:09). Diese Bezeichnung rührt von einer früher in Steeg praktizierten Arbeitsweise her, die zur Arbeitserleichterung beitrug, und hat nichts mit dem dummen Esel zu tun.

Sextreffen mit frau und hund, Zeil am main 97475 sextreffen, Sextreffen waltrop, Fick treffen in Harzgerode,


Most viewed

Du hast das Gefühl, dass du Ruhe Entspannung in einem eleganten, luxuriösen Ambiente. Ganze Zeit ohne Stress! Wie wäre es heute mit uns in Brig Wallis? Ich bin humorvoll, sehr zärtlich und absolut naturgeil!..
Read more
They also have a mobile app (called "Hot or Not. Apps like Tinder, Grindr, Bumble, and Match all fill different dating needs, and work differently. Some hookup apps are only available for iOS and..
Read more
Eines steht in Hannover fest: Egal, ob am Steintor, in Ricklingen, Kleefeld oder Herrenhausen. Dort muss man Richtung Einfahrt in Richtung Wald spazieren. Auch im Irish Pub Jack the Ripper ist etwas für jeden..
Read more
Sitemap